<?xml version="1.0" standalone="no"?>
<!DOCTYPE svg PUBLIC "-//W3C//DTD SVG 1.1//EN" "http://www.w3.org/Graphics/SVG/1.1/DTD/svg11.dtd" >
<svg xmlns="http://www.w3.org/2000/svg">
<metadata>Generated by IcoMoon</metadata>
<defs>
<font id="icomoon" horiz-adv-x="1024">
<font-face units-per-em="1024" ascent="960" descent="-64" />
<missing-glyph horiz-adv-x="1024" />
<glyph unicode="&#x20;" horiz-adv-x="512" d="" />
<glyph unicode="&#xe900;" glyph-name="hamburger" d="M258.048 717.312h507.904v-83.968h-507.904v83.968zM258.048 261.632h507.904v-83.968h-507.904v83.968zM258.048 489.984h507.904v-83.968h-507.904v83.968z" />
<glyph unicode="&#xe901;" glyph-name="close" d="M548.25 448l245.555 245.555c10.035 10.035 10.035 26.214 0 36.25s-26.214 10.035-36.25 0l-245.555-245.555-245.555 245.555c-10.035 10.035-26.214 10.035-36.25 0s-10.035-26.214 0-36.25l245.555-245.555-245.555-245.555c-10.035-10.035-10.035-26.214 0-36.25 5.018-5.018 11.571-7.475 18.125-7.475s13.107 2.458 18.125 7.475l245.555 245.555 245.555-245.555c5.018-5.018 11.571-7.475 18.125-7.475s13.107 2.458 18.125 7.475c10.035 10.035 10.035 26.214 0 36.25l-245.555 245.555z" />
<glyph unicode="&#xe902;" glyph-name="arrow-down" d="M512 280.678l-284.262 280.576c-10.035 9.933-10.138 26.112-0.205 36.25 9.933 10.035 26.112 10.138 36.25 0.205l248.218-245.146 248.218 245.043c10.035 9.933 26.317 9.83 36.25-0.205s9.83-26.317-0.205-36.25l-284.262-280.474z" />
<glyph unicode="&#xe903;" glyph-name="arrow-left" d="M643.379 156.16c-6.656 0-13.21 2.56-18.227 7.578l-280.474 284.262 280.576 284.262c9.933 10.035 26.112 10.138 36.25 0.205 10.035-9.933 10.138-26.112 0.205-36.25l-245.146-248.218 245.043-248.218c9.933-10.035 9.83-26.317-0.205-36.25-5.018-4.915-11.469-7.373-18.022-7.373z" />
<glyph unicode="&#xe904;" glyph-name="arrow-right" d="M380.621 156.16c-6.451 0-13.005 2.458-18.022 7.373-10.035 9.933-10.138 26.112-0.205 36.25l245.043 248.218-245.043 248.218c-9.933 10.035-9.83 26.317 0.205 36.25s26.214 9.83 36.25-0.205l280.474-284.262-280.576-284.262c-4.915-5.018-11.571-7.578-18.125-7.578z" />
<glyph unicode="&#xe905;" glyph-name="arrow-up" d="M778.24 291.021c-6.451 0-13.005 2.458-18.022 7.373l-248.218 245.043-248.218-245.043c-10.035-9.933-26.317-9.83-36.25 0.205s-9.83 26.317 0.205 36.25l284.262 280.474 284.262-280.576c10.035-9.933 10.138-26.112 0.205-36.25-5.018-4.915-11.571-7.475-18.227-7.475z" />
<glyph unicode="&#xe906;" glyph-name="plus" d="M775.68 473.6h-238.080v238.080c0 14.131-11.469 25.6-25.6 25.6s-25.6-11.469-25.6-25.6v-238.080h-238.080c-14.131 0-25.6-11.469-25.6-25.6s11.469-25.6 25.6-25.6h238.080v-238.080c0-14.131 11.469-25.6 25.6-25.6s25.6 11.469 25.6 25.6v238.080h238.080c14.131 0 25.6 11.469 25.6 25.6s-11.469 25.6-25.6 25.6z" />
<glyph unicode="&#xe907;" glyph-name="minus" d="M775.68 422.4h-527.36c-14.131 0-25.6 11.469-25.6 25.6s11.469 25.6 25.6 25.6h527.36c14.131 0 25.6-11.469 25.6-25.6s-11.469-25.6-25.6-25.6z" />
<glyph unicode="&#xe908;" glyph-name="comments" d="M803.123 705.741h-582.246c-69.018 0-124.928-55.91-124.928-124.928v-202.138c0-69.018 55.91-124.928 124.928-124.928h395.059c7.987 0 14.438-6.554 14.234-14.541-0.819-29.901-7.066-73.011-32.358-111.718-6.349-9.728 2.867-22.016 14.029-18.637 49.254 14.95 133.325 52.224 153.395 134.349 1.536 6.246 7.27 10.65 13.722 10.65h23.962c69.018 0 124.928 55.91 124.928 124.928v202.138c0.102 68.915-55.808 124.826-124.723 124.826zM340.582 438.067c-26.112 0-47.309 21.197-47.309 47.309s21.197 47.309 47.309 47.309c26.112 0 47.309-21.197 47.309-47.309-0.102-26.112-21.197-47.309-47.309-47.309zM507.392 438.067c-26.112 0-47.309 21.197-47.309 47.309s21.197 47.309 47.309 47.309c26.112 0 47.309-21.197 47.309-47.309s-21.197-47.309-47.309-47.309zM674.304 438.067c-26.112 0-47.309 21.197-47.309 47.309s21.197 47.309 47.309 47.309c26.112 0 47.309-21.197 47.309-47.309s-21.197-47.309-47.309-47.309z" />
<glyph unicode="&#xe909;" glyph-name="youtube" d="M944.128 667.136c-10.24 38.912-40.96 69.632-79.872 79.872-69.632 19.456-352.256 19.456-352.256 19.456s-282.624 0-352.256-19.456c-38.912-10.24-69.632-40.96-79.872-79.872-19.456-71.68-19.456-219.136-19.456-219.136s0-147.456 18.432-219.136c10.24-38.912 40.96-69.632 79.872-79.872 70.656-19.456 352.256-19.456 352.256-19.456s282.624 0 352.256 19.456c38.912 10.24 69.632 40.96 79.872 79.872 18.432 70.656 18.432 219.136 18.432 219.136s2.048 147.456-17.408 219.136zM419.84 313.856v268.288l235.52-134.144-235.52-134.144z" />
<glyph unicode="&#xe90a;" glyph-name="instagram" d="M512 794.112c-94.208 0-105.472 0-143.36-2.048-36.864-2.048-62.464-7.168-83.968-16.384-22.528-9.216-41.984-20.48-61.44-39.936s-30.72-38.912-39.936-61.44c-8.192-22.528-14.336-47.104-16.384-83.968s-2.048-49.152-2.048-143.36c0-94.208 0-105.472 2.048-143.36 2.048-36.864 7.168-62.464 16.384-83.968 9.216-22.528 20.48-41.984 39.936-61.44s38.912-30.72 61.44-39.936c22.528-8.192 47.104-14.336 83.968-16.384s49.152-2.048 143.36-2.048 105.472 0 143.36 2.048 62.464 7.168 83.968 16.384c22.528 9.216 41.984 20.48 61.44 39.936s30.72 38.912 39.936 61.44c8.192 22.528 14.336 47.104 16.384 83.968s2.048 49.152 2.048 143.36c0 94.208 0 105.472-2.048 143.36-2.048 36.864-7.168 62.464-16.384 83.968-9.216 22.528-20.48 41.984-39.936 61.44s-38.912 30.72-61.44 39.936c-22.528 8.192-47.104 14.336-83.968 16.384-37.888 2.048-49.152 2.048-143.36 2.048zM512 731.648c92.16 0 103.424 0 140.288-2.048 33.792-2.048 52.224-7.168 64.512-12.288 16.384-6.144 27.648-13.312 39.936-25.6s19.456-23.552 25.6-39.936c5.12-12.288 10.24-30.72 12.288-64.512 2.048-36.864 2.048-47.104 2.048-140.288 0-92.16 0-103.424-2.048-140.288-2.048-33.792-7.168-52.224-12.288-64.512-6.144-16.384-13.312-27.648-25.6-39.936s-23.552-19.456-39.936-25.6c-12.288-5.12-30.72-10.24-64.512-12.288-36.864-2.048-47.104-2.048-140.288-2.048s-103.424 0-140.288 2.048c-33.792 2.048-52.224 7.168-64.512 12.288-16.384 6.144-27.648 13.312-39.936 25.6s-19.456 23.552-25.6 39.936c-5.12 12.288-10.24 30.72-12.288 64.512-2.048 36.864-2.048 47.104-2.048 140.288 0 92.16 0 103.424 2.048 140.288 2.048 33.792 7.168 52.224 12.288 64.512 6.144 16.384 13.312 27.648 25.6 39.936s23.552 19.456 39.936 25.6c12.288 5.12 30.72 10.24 64.512 12.288 36.864 2.048 48.128 2.048 140.288 2.048zM512 332.288c-63.488 0-115.712 52.224-115.712 115.712s52.224 115.712 115.712 115.712 115.712-51.2 115.712-115.712-52.224-115.712-115.712-115.712zM512 626.176c-98.304 0-178.176-79.872-178.176-178.176s79.872-178.176 178.176-178.176 178.176 79.872 178.176 178.176-79.872 178.176-178.176 178.176zM738.304 633.344c0-22.528-18.432-41.984-41.984-41.984-22.528 0-41.984 18.432-41.984 41.984 0 22.528 18.432 41.984 41.984 41.984 23.552-1.024 41.984-19.456 41.984-41.984z" />
<glyph unicode="&#xe90b;" glyph-name="twitter" d="M368.64 134.656c290.816 0 450.56 241.664 450.56 450.56 0 7.168 0 13.312 0 20.48 30.72 22.528 57.344 50.176 78.848 81.92-28.672-12.288-59.392-21.504-91.136-24.576 32.768 19.456 57.344 50.176 69.632 88.064-30.72-18.432-64.512-31.744-100.352-38.912-28.672 30.72-69.632 50.176-115.712 50.176-87.040-1.024-158.72-71.68-158.72-158.72 0-12.288 1.024-24.576 4.096-35.84-131.072 6.144-247.808 69.632-326.656 165.888-13.312-23.552-21.504-50.176-21.504-79.872 0-55.296 27.648-103.424 70.656-132.096-25.6 1.024-50.176 8.192-71.68 19.456 0-1.024 0-1.024 0-2.048 0-76.8 54.272-140.288 126.976-155.648-13.312-4.096-27.648-5.12-41.984-5.12-10.24 0-20.48 1.024-29.696 3.072 20.48-62.464 78.848-108.544 147.456-109.568-54.272-41.984-122.88-67.584-196.608-67.584-12.288 0-25.6 1.024-37.888 2.048 71.68-46.080 154.624-71.68 243.712-71.68z" />
<glyph unicode="&#xe90c;" glyph-name="facebook" d="M801.792 794.112h-614.4c-21.504 0-37.888-17.408-37.888-37.888v-614.4c0-21.504 17.408-37.888 37.888-37.888h330.752v266.24h-90.112v104.448h90.112v76.8c0 89.088 54.272 138.24 134.144 138.24 26.624 0 53.248-1.024 80.896-4.096v-93.184h-55.296c-43.008 0-51.2-20.48-51.2-51.2v-66.56h103.424l-13.312-104.448h-90.112v-267.264h176.128c21.504 0 37.888 17.408 37.888 37.888v614.4c-1.024 21.504-18.432 37.888-38.912 38.912z" />
<glyph unicode="&#xe90d;" glyph-name="linkedin" d="M806.912 794.112h-590.848c-28.672 0-51.2-22.528-51.2-50.176v-592.896c0-27.648 22.528-50.176 51.2-50.176h590.848c28.672 0 51.2 22.528 51.2 50.176v593.92c0 27.648-22.528 49.152-51.2 49.152zM370.688 204.288h-102.4v330.752h102.4v-330.752zM319.488 580.096c-32.768 0-59.392 26.624-59.392 59.392s26.624 59.392 59.392 59.392c32.768 0 59.392-26.624 59.392-59.392s-26.624-59.392-59.392-59.392zM755.712 204.288h-102.4v160.768c0 37.888-1.024 88.064-53.248 88.064-53.248 0-61.44-41.984-61.44-84.992v-163.84h-102.4v330.752h98.304v-45.056h1.024c13.312 25.6 47.104 53.248 97.28 53.248 104.448 0 122.88-68.608 122.88-157.696v-181.248z" />
<glyph unicode="&#xe90e;" glyph-name="volume-full" d="M295.936 523.776v-151.552h112.64l103.424-70.656v292.864l-103.424-70.656zM628.736 610.816c-6.144 3.072-14.336 1.024-17.408-5.12s-1.024-14.336 5.12-17.408c53.248-26.624 84.992-80.896 84.992-140.288s-32.768-112.64-84.992-140.288c-6.144-3.072-9.216-11.264-5.12-17.408 2.048-4.096 7.168-7.168 11.264-7.168 2.048 0 4.096 0 6.144 1.024 61.44 31.744 99.328 94.208 99.328 162.816 0 69.632-37.888 132.096-99.328 163.84zM662.528 448c0 49.152-30.72 93.184-76.8 110.592-6.144 2.048-14.336-1.024-16.384-7.168s1.024-14.336 7.168-16.384c35.84-13.312 60.416-48.128 60.416-86.016s-24.576-72.704-60.416-86.016c-6.144-2.048-10.24-10.24-7.168-16.384 2.048-5.12 7.168-8.192 12.288-8.192 1.024 0 3.072 0 4.096 1.024 46.080 15.36 76.8 59.392 76.8 108.544z" />
<glyph unicode="&#xe90f;" glyph-name="pause" d="M571.392 617.984h107.52v-339.968h-107.52v339.968zM345.088 617.984h107.52v-339.968h-107.52v339.968z" />
<glyph unicode="&#xe910;" glyph-name="volume-none" d="M617.472 591.36l-101.376-68.608h-109.568v-149.504h109.568l101.376-68.608z" />
<glyph unicode="&#xe911;" glyph-name="full-screen" d="M221.184 523.776v122.88h215.040v25.6h-240.64v-148.48zM587.776 646.656h215.040v-122.88h25.6v148.48h-240.64zM802.816 372.224v-122.88h-215.040v-25.6h240.64v148.48zM436.224 249.344h-215.040v122.88h-25.6v-148.48h240.64z" />
<glyph unicode="&#xe912;" glyph-name="fast-forward" d="M429.056 461.312c0 7.168 5.12 12.288 11.264 12.288s11.264-5.12 11.264-12.288c0-7.168-5.12-12.288-11.264-12.288s-11.264 5.12-11.264 12.288zM429.056 391.68c0 7.168 5.12 12.288 11.264 12.288s11.264-5.12 11.264-12.288c0-7.168-5.12-12.288-11.264-12.288s-11.264 5.12-11.264 12.288zM479.232 395.776h27.648v90.112h-22.528v10.24c11.264 2.048 19.456 5.12 25.6 9.216h12.288v-108.544h25.6v-13.312h-68.608v12.288zM564.224 396.8l8.192 10.24c7.168-7.168 16.384-14.336 30.72-14.336 15.36 0 26.624 11.264 26.624 27.648s-10.24 26.624-25.6 26.624c-8.192 0-13.312-3.072-20.48-7.168l-8.192 5.12 4.096 58.368h61.44v-13.312h-47.104l-3.072-35.84c6.144 3.072 11.264 5.12 18.432 5.12 20.48 0 37.888-12.288 37.888-37.888 0-26.624-19.456-40.96-40.96-40.96s-33.792 8.192-41.984 16.384zM305.152 670.208c61.44 66.56 145.408 104.448 236.544 107.52 35.84 1.024 71.68-3.072 105.472-13.312l12.288 30.72 49.152-55.296c14.336-7.168 27.648-15.36 40.96-24.576l24.576 26.624 35.84-95.232-97.28 28.672 20.48 21.504c-10.24 7.168-21.504 14.336-32.768 20.48l-75.776-6.144 12.288 30.72c-30.72 8.192-62.464 12.288-95.232 11.264-83.968-3.072-161.792-38.912-219.136-100.352-117.76-125.952-111.616-325.632 16.384-444.416 126.976-118.784 326.656-111.616 444.416 15.36l17.408-16.384c-84.992-91.136-208.896-124.928-322.56-99.328-56.32 12.288-110.592 39.936-156.672 82.944-136.192 128-143.36 342.016-16.384 479.232z" />
<glyph unicode="&#xe913;" glyph-name="play" d="M346.112 282.112v331.776l331.776-165.888z" />
<glyph unicode="&#xe914;" glyph-name="rewind" d="M362.496 460.288c0 7.168 5.12 12.288 11.264 12.288s11.264-5.12 11.264-12.288c0-7.168-5.12-12.288-11.264-12.288s-11.264 6.144-11.264 12.288zM362.496 391.68c0 7.168 5.12 12.288 11.264 12.288s11.264-5.12 11.264-12.288c0-7.168-5.12-12.288-11.264-12.288s-11.264 6.144-11.264 12.288zM412.672 395.776h27.648v89.088h-22.528v10.24c11.264 2.048 19.456 5.12 25.6 9.216h12.288v-108.544h25.6v-13.312h-68.608v13.312zM496.64 396.8l8.192 10.24c7.168-7.168 16.384-14.336 30.72-14.336s26.624 10.24 26.624 27.648c0 16.384-10.24 26.624-25.6 26.624-8.192 0-13.312-3.072-20.48-7.168l-8.192 5.12 4.096 58.368h60.416v-13.312h-47.104l-3.072-35.84c6.144 3.072 11.264 5.12 18.432 5.12 20.48 0 37.888-12.288 37.888-37.888 0-26.624-19.456-40.96-40.96-40.96-20.48 0-32.768 8.192-40.96 16.384zM718.848 669.184c-61.44 65.536-145.408 104.448-235.52 107.52-35.84 1.024-70.656-3.072-104.448-13.312l-12.288 30.72-49.152-55.296c-14.336-7.168-27.648-15.36-40.96-24.576l-24.576 26.624-34.816-95.232 97.28 28.672-20.48 21.504c10.24 7.168 21.504 14.336 32.768 20.48l73.728-6.144-12.288 30.72c30.72 8.192 62.464 12.288 95.232 11.264 83.968-3.072 161.792-37.888 219.136-99.328 117.76-125.952 110.592-325.632-16.384-443.392s-325.632-111.616-443.392 15.36l-17.408-16.384c84.992-91.136 207.872-124.928 321.536-99.328 56.32 12.288 110.592 39.936 155.648 81.92 136.192 128 143.36 342.016 16.384 478.208z" />
<glyph unicode="&#xe921;" glyph-name="share1" d="M408.576 430.592c0-11.264-2.048-22.528-6.144-32.768l240.64-152.576c17.408 17.408 41.984 27.648 68.608 27.648 52.224 0 96.256-43.008 96.256-96.256 0-52.224-43.008-96.256-96.256-96.256-54.272 0-96.256 43.008-96.256 96.256 0 11.264 2.048 22.528 6.144 32.768l-240.64 153.6c-17.408-17.408-41.984-27.648-68.608-27.648-52.224 0-96.256 43.008-96.256 96.256 0 52.224 43.008 96.256 96.256 96.256 27.648 0 54.272-12.288 70.656-31.744l237.568 134.144c-2.048 8.192-5.12 18.432-5.12 27.648 0 52.224 43.008 96.256 96.256 96.256 54.272 0 96.256-43.008 96.256-96.256 0-52.224-43.008-96.256-96.256-96.256-27.648 0-54.272 12.288-70.656 31.744l-236.544-134.144c3.072-9.216 4.096-19.456 4.096-28.672z" />
</font>
</defs>
</svg>
